1 视频中的旋转信息以及为什么会有旋转信息

Android或者ios等手机上录制视频时,由于重力感应或者录制视频的摆放方式的问题会导致录制的视频拥有旋转信息。如果是横屏录制(手机逆时针旋转90度),则录制的视频时不带角度的。如果是竖屏录制(正常的拿手机的姿势),此时的录制的视频的旋转角度是90度。如果再旋转90度,此时一般音量键和关屏键朝下,此时的视频的旋转角度是180。以此类推。所以在手机上的视频一般会有4种角度的视频,播放时,要对视频资源进行旋转后再进行播放,不然视频就会出现各种反转、倾倒。

https://www.stubbornhuang.com/1855/ 已经分享了在python中如何读取视频旋转角度并根据视频旋转角度旋转视频帧的代码,有兴趣的可以查看。

我们可以使用ffmpge下的工具ffprobe查看视频的元数据信息:

1.1 不带旋转信息也就是旋转角度为0的视频元数据信息

Input #0, mov,mp4,m4a,3gp,3g2,mj2, from 'a.mp4':
  Metadata:
    major_brand     : mp42
    minor_version   : 0
    compatible_brands: isommp42
    creation_time   : 2021-07-17T14:12:45.000000Z
    location        : +28.7793+113.2697/
    location-eng    : +28.7793+113.2697/
    com.android.version: 8.1.0
  Duration: 00:00:06.13, start: 0.000000, bitrate: 18162 kb/s
    Stream #0:0(eng): Video: h264 (High) (avc1 / 0x31637661), yuvj420p(pc, smpte170m), 1920x1080, 17008 kb/s, SAR 1:1 DAR 16:9, 29.86 fps, 30 tbr, 90k tbn, 180k tbc (default)
    Metadata:
      creation_time   : 2021-07-17T14:12:45.000000Z
      handler_name    : VideoHandle
    Stream #0:1(eng): Audio: aac (LC) (mp4a / 0x6134706D), 48000 Hz, mono, fltp, 96 kb/s (default)
    Metadata:
      creation_time   : 2021-07-17T14:12:45.000000Z
      handler_name    : SoundHandle

1.2 旋转90度的视频元数据信息

Input #0, mov,mp4,m4a,3gp,3g2,mj2, from 'b.mp4':
  Metadata:
    major_brand     : mp42
    minor_version   : 0
    compatible_brands: isommp42
    creation_time   : 2021-08-20T05:32:36.000000Z
    location        : +00.0000+000.0000/
    location-eng    : +00.0000+000.0000/
    com.android.version: 10
  Duration: 00:00:03.89, start: 0.000000, bitrate: 8777 kb/s
    Stream #0:0(eng): Audio: aac (LC) (mp4a / 0x6134706D), 48000 Hz, stereo, fltp, 127 kb/s (default)
    Metadata:
      creation_time   : 2021-08-20T05:32:36.000000Z
      handler_name    : SoundHandle
    Stream #0:1(eng): Video: h264 (High) (avc1 / 0x31637661), yuv420p(tv, unknown/bt470bg/unknown), 720x1280, 8724 kb/s, SAR 1:1 DAR 9:16, 30.09 fps, 30 tbr, 90k tbn, 180k tbc (default)
    Metadata:
      rotate          : 90
      creation_time   : 2021-08-20T05:32:36.000000Z
      handler_name    : VideoHandle
    Side data:
      displaymatrix: rotation of -90.00 degrees

1.3 旋转180度的视频元数据信息

Input #0, mov,mp4,m4a,3gp,3g2,mj2, from 'c.mp4':
  Metadata:
    major_brand     : mp42
    minor_version   : 0
    compatible_brands: isommp42
    creation_time   : 2021-07-18T01:43:43.000000Z
    com.android.version: 10
  Duration: 00:00:04.98, start: 0.000000, bitrate: 4997 kb/s
    Stream #0:0(eng): Video: h264 (High) (avc1 / 0x31637661), yuv420p(tv, bt709), 1920x1080, 3502 kb/s, SAR 1:1 DAR 16:9, 29.12 fps, 29.50 tbr, 90k tbn, 180k tbc (default)
    Metadata:
      rotate          : 180
      creation_time   : 2021-07-18T01:43:43.000000Z
      handler_name    : VideoHandle
    Side data:
      displaymatrix: rotation of -180.00 degrees
    Stream #0:1(eng): Audio: aac (LC) (mp4a / 0x6134706D), 48000 Hz, stereo, fltp, 193 kb/s (default)
    Metadata:
      creation_time   : 2021-07-18T01:43:43.000000Z
      handler_name    : SoundHandle

1.4 旋转270度的视频元数据信息

Input #0, mov,mp4,m4a,3gp,3g2,mj2, from 'd.mp4':
  Metadata:
    major_brand     : mp42
    minor_version   : 0
    compatible_brands: isommp42
    creation_time   : 2021-10-29T01:52:22.000000Z
    location        : +28.2386+113.0239/
    location-eng    : +28.2386+113.0239/
    com.android.version: 11
  Duration: 00:00:06.15, start: 0.000000, bitrate: 19144 kb/s
    Stream #0:0(eng): Video: h264 (High) (avc1 / 0x31637661), yuv420p(tv, bt709), 1080x1920, 18490 kb/s, SAR 1:1 DAR 9:16, 30.08 fps, 90k tbr, 90k tbn, 180k tbc (default)
    Metadata:
      rotate          : 270
      creation_time   : 2021-10-29T01:52:22.000000Z
      handler_name    : VideoHandle
    Side data:
      displaymatrix: rotation of 90.00 degrees
    Stream #0:1(eng): Audio: aac (LC) (mp4a / 0x6134706D), 48000 Hz, stereo, fltp, 128 kb/s (default)
    Metadata:
      creation_time   : 2021-10-29T01:52:22.000000Z
      handler_name    : SoundHandle

从上面各种视频的元数据信息中我们可以看到,如果该视频拥有旋转信息,那么在该视频的视频流的元数据信息的rotate字段会存储旋转角度,例如:

    Stream #0:0(eng): Video: h264 (High) (avc1 / 0x31637661), yuv420p(tv, bt709), 1080x1920, 18490 kb/s, SAR 1:1 DAR 9:16, 30.08 fps, 90k tbr, 90k tbn, 180k tbc (default)
    Metadata:
      rotate          : 270
      creation_time   : 2021-10-29T01:52:22.000000Z
      handler_name    : VideoHandle

2 使用ffmpeg C++ sdk获取视频的视频流旋转信息

之前查看的视频旋转角度是使用ffprobe的这个工具,但是如何在代码中使用ffmpeg sdk获取视频角度信息呢?

通过上述发现,视频的旋转角度存储在视频流的元数据中,所以我们首先可以打开视频文件,然后找到视频中的视频流,最后获取视频流的元数据信息并得到旋转角度,具体的代码如下:

此文章剩余51%被隐藏需要付费查看,内容查看价格1饼子立即购买,VIP免费
支付前请仔细阅读以下说明,如支付代表您了解并同意了以下说明(资源虽好,但请理性捐赠本站):
(1)请购买正版资源,支持原作者和出版社;
(2)资源收集自互联网,仅供自我学习,请在下载后24小时内删除该资源,如下载者将此资源用于其他非法用途,本站不承担任何法律责任;如有侵权,请立即联系我,马上删除!
(3)此捐赠下载方式无需注册+登录账号,当然如果您喜欢本站也可注册账号;
(4)所支付的款项为捐赠本站款项,而并非付费下载所付款项,本站会在您捐赠本站后显示隐藏内容,请知悉,先非常感谢您对本站的捐赠;
(5)本站支付使用Payjs,该第三方支付方式为微信官方授权的服务商,无支付风险,详情请查看:https://payjs.cn
(6)请不要使用浏览器无痕模式进行支付下载,以免造成支付成功但未显示隐藏内容。
(7)点击立即购买按钮后弹出选择支付方式页面,选择任意支付方式点击后会跳转到新的二维码支付页面,支付成功后会弹出支付成功的提示框,点击提示框会自动刷新页面显示隐藏内容;另外请不要重复支付,避免财产损失;
(8)在2021年7月27日前,本站采用注册+登录+评论的免费下载模式,旨在节省大家寻找宝贵资源的时间,为大家带来珍贵的知识来源,但是从2021年7月27日起,因遭受注册轰炸和恶意爬虫造成网站负载过大导致宕机,被迫无奈,为减少网站运营时间成本,对部分资源进行捐赠下载,添加支付是反爬虫的最好方式,在此对未享受到免费下载福利的访客表示歉意;
(9)如遇支付页面未弹出、支付成功但未显示隐藏内容、资源链接失效或者提取码出错等情况请发送邮件到stubbornhuang@qq.com或者直接联系QQ:623256052,会尽快为您解决!加我时请备注原因,谢谢!或者点击按钮点击反馈进入反馈页面进行问题反馈
(10)由以上捐赠下载带来的不便请您谅解,如出现重复付费的情况,请联系我,我会尽快返回您的退款!
支付过程请参考下图:
C++ – 使用ffmpeg读取视频旋转角度并使用OpenCV根据旋转角度对视频进行旋转复原-StubbornHuang Blog